#TITLE:HEY AMIGO;
#SUBTITLE:;
#ARTIST:Vivian;
#TITLETRANSLIT:;
#SUBTITLETRANSLIT:;
#ARTISTTRANSLIT:;
#CREDIT:;
#BANNER:Hey Amigo-banner.png;
#BACKGROUND:Hey Amigo-bg.png;
#LYRICSPATH:;
#CDTITLE:;
#MUSIC:Hey Amigo.mp3;
#MUSICLENGTH:98.063;
#OFFSET:-0.960;
#SAMPLESTART:71.725;
#SAMPLELENGTH:12.000;
#SELECTABLE:YES;
#BPMS:0.000=135.000;
#STOPS:;
#BGCHANGES:;
#FIRSTBEAT:16.000;

#LASTBEAT:212.000;

#SONGFILENAME:Songs/ERICth MIX 2nd Style/Hey Amigo/heyamigo.sm;

#HASMUSIC:1;

#HASBANNER:1;


//---------------dance-single - MANIAC----------------
#NOTES:
     dance-single:
     MANIAC:
     hard:
     8:
     0.328,0.378,0.051,0.010,0.000,219.000,5.000,1.000,0.000,0.000:


0000
0000
0000
0000
,
0000
0000
0000
0000
,
0000
0000
0000
0000
,
0000
0000
0000
0000
,
0010
0000
0000
0000
,
0100
0000
0000
0000
,
1000
0000
0001
0000
,
1000
0100
0010
0000
,
1000
0000
0100
0000
0010
0010
0100
0000
,
0001
0000
1000
0000
0100
0100
1000
0000
,
0001
0100
0010
1000
,
0001
0001
0000
0000
1000
0000
0100
0000
,
0010
0000
0100
0000
0001
0001
0100
0000
,
1000
0000
0010
0000
0100
0100
1000
0000
,
0001
0000
0001
0000
,
1000
0000
0001
0000
1000
0100
0001
0000
,
0100
0100
0100
0100
,
0100
0010
0001
1000
,
1000
0010
0010
0010
,
0010
0000
1000
0001
1000
0000
1001
0000
,
1000
0100
1000
0010
0001
0000
0000
0100
,
0000
0010
0000
0000
1000
0100
1000
0000
,
0001
0010
0100
0010
0100
0000
0000
1000
,
0000
0001
0000
1000
0000
0100
1000
0000
,
0010
1000
0100
1000
0001
0000
0000
0100
,
0000
1000
0010
0000
0001
1000
0100
0000
,
0010
0100
0010
0100
0001
0000
0000
0001
,
0000
0100
1000
0001
1000
0000
0010
0000
,
1000
0000
0100
0000
1000
0000
0010
1000
,
0000
0100
0000
0100
0000
0100
0000
0000
,
0001
1000
0100
1000
0010
0000
0001
0010
,
0000
0010
0000
0010
0000
0010
0100
1000
,
0001
0000
1000
0000
0001
0000
1000
0100
,
0010
0000
0001
0000
1000
0000
0100
0010
,
0100
0000
0001
0000
1000
0000
1000
0100
,
0100
0000
1000
0000
0010
0000
1000
0001
,
0010
0000
0100
0100
0100
0000
0010
0010
,
0010
0000
1000
0000
0001
0000
0100
0010
,
0100
0000
1000
0001
0010
0000
0100
0010
,
0001
1000
0100
0010
0001
1000
0100
0000
,
0010
0000
0110
0000
0100
0100
0001
0000
,
0001
0000
1000
0000
0010
0010
1000
1000
,
0100
0000
1000
0000
0010
0100
0010
0000
,
0001
0000
0100
0000
0010
0100
0100
0000
,
1000
0000
0100
0000
0010
0000
0100
0100
,
0100
0000
1000
0100
0010
0000
1000
0000
,
0001
1000
0001
0000
0110
0000
0110
0000
,
1001
0000
1000
0100
0010
0000
0010
0000
,
1000
0001
0000
0001
0000
0001
1000
0010
,
0000
0200
0000
0000
0000
0000
0000
0000
,
0000
0001
0000
1000
0000
0000
0000
0000
,
0000
0000
0000
0000
,
0300
1000
0100
0010
,
0001
0000
0000
0000;
